The Ugly Truth[2009]-WP-ScR-LW-[Torrentz]


    Seeders : 2      Leechers : 21

Hash :70455A1184C876C421A31BB39E46777D36B6389E
Added :1 Year+ in Movies
Size :1.07 GB
Stream :Watch Full Movie @ Movie4u


The Ugly Truth[2009]-WP-ScR-LW-[Torrentz]
Use a VPN Service to Download torrents Anonymously.







Warning! Please Download Torrents with a VPN.
Your IP Address is 3.85.143.239.   And Location is United States, East Elmhurst
Your Internet Service Provider and Government can track your Online Activity!  Protect yourself from expensive lawsuits and fines NOW!
We Strongly Recommend Using Best Cheapest VPN to Anonymize your Torrenting.

Note :

Please Update (Trackers Info) Before Start Torrents Downloading to See Updated Seeders And Leechers for Batter Download Speed.

Trackers List

Tracker NameLast CheckStatusSeedersLeechers



Torrent File Content (7 files)


The Ugly Truth[2009]-WP-ScR-LW
    Cover
          TUT-Cover.jpg -
55.79 KB

    Info
          Movie Info.nfo -
4.06 KB

          Movie Info.txt -
2.88 KB

    Movie
          The Ugly Truth[2009]-WP-DvDScR-LW.mp4 -
1.07 GB

    Trackers
          tracked_by_torrentz.me.pn.txt -
45 bytes

          tracked_by_sharingHQ.net.txt -
44 bytes

          tracked_by_h33t_com.txt -
23 bytes



Description



      ) (`-.                           (` .-') /`           ) (`-.
       ( OO ).                          `.( OO ),'            ( OO ).
      (_/.  _)-.-'),-----. ,--.     ,--./  .--.  .-'),-----.(_/.  _)-.
         `.'  ( OO'  .-.  '|  |.-') |      |  | ( OO'  .-.  '  `.'  /
             /Y   |  | |  ||  | OO )|  |   |  |,/   |  | |  |      /
             _) |  ||  ||  |`-' ||  |.'.|  |_)_) |  ||  |      |
        .'    _) |  | |  (|  '---.'|         |    |  | |  | .'    _)
       /  .'.    `'  '-'  '|      | |   ,'.   |    `'  '-'  '/  .'.  
      '--'   '--'   `-----' `------' '--'   '--'      `-----''--'   '--'


     
ßßßßßßßßßßßßßßßßßßßßßßßßßßßßßßßßßßßßßßßßßßßßßßßßßßßßßßßßßßßßßßßßßßßßßß

                  
Û°°°°°°°°°°°°°°°°°°°°°°°°°°°°°°°°°°°Û
                  ÛÛ The Ugly Truth[2009]-WP-DvDScR-LW ÛÛ
                  
Û°°°°°°°°°°°°°°°°°°°°°°°°°°°°°°°°°°°Û

File Name    : The Ugly Truth[2009]-WP-DvDScR-LW
Type         : Movie
Format       : MP4
File Size    : 1.07 GB
Duration     : 01:35:55
Language     : English
Source       : DvD
Subtitles    : None
Genre        : Comedy | Romance 
IMDB Link    : http://www.imdb.com/title/tt1142988/
IMDB Rating  : 6.6/10
IMDB Votes   : 6,866 Votes
    
ÜÜÜÜÜÜÜÜÜÜÜÜÜÜÜÜÜÜÜÜÜÜÜÜÜÜÜÜÜÜÜÜÜÜÜÜÜÜÜÜÜÜÜÜÜÜÜÜÜÜÜÜÜÜÜÜÜÜÜÜÜÜÜÜÜÜÜÜÜÜ
 
                       
Û°°°°°°°°°°°°°°°°°°°°°°°°Û
                       ÛÛ       Video Info       ÛÛ
                       
Û°°°°°°°°°°°°°°°°°°°°°°°°Û

Format                           : MPEG-4 Visual
Format profile                   : [email protected]
Format settings, BVOP            : No
Format settings, QPel            : No
Format settings, GMC             : No warppoints
Format settings, Matrix          : Default (H.263)
Codec ID                         : 20
Duration                         : 1h 35mn
Bit rate mode                    : Constant
Bit rate                         : 1 500 Kbps
Width                            : 688 pixels
Height                           : 368 pixels
Display aspect ratio             : 1.870
Frame rate mode                  : Constant
Frame rate                       : 29.970 fps
Resolution                       : 24 bits
Colorimetry                      : 4:2:0
Scan type                        : Progressive
Bits/(Pixel*Frame)               : 0.198
Stream size                      : 1.00 GiB (94%)
    
ÜÜÜÜÜÜÜÜÜÜÜÜÜÜÜÜÜÜÜÜÜÜÜÜÜÜÜÜÜÜÜÜÜÜÜÜÜÜÜÜÜÜÜÜÜÜÜÜÜÜÜÜÜÜÜÜÜÜÜÜÜÜÜÜÜÜÜÜÜÜ

                        
Û°°°°°°°°°°°°°°°°°°°°°°°°Û
                        ÛÛ      Sound Info        ÛÛ
                        
Û°°°°°°°°°°°°°°°°°°°°°°°°Û

Format                           : AAC
Format/Info                      : Advanced Audio Codec
Format version                   : Version 4
Format profile                   : LC
Format settings, SBR             : No
Codec ID                         : 40
Duration                         : 1h 35mn
Bit rate mode                    : Constant
Bit rate                         : 96.0 Kbps
Nominal bit rate                 : 48.0 Kbps
Channel(s)                       : 2 channels
Channel positions                : L R
Sampling rate                    : 32.0 KHz
Resolution                       : 16 bits
Stream size                      : 65.9 MiB (6%)
   
ÜÜÜÜÜÜÜÜÜÜÜÜÜÜÜÜÜÜÜÜÜÜÜÜÜÜÜÜÜÜÜÜÜÜÜÜÜÜÜÜÜÜÜÜÜÜÜÜÜÜÜÜÜÜÜÜÜÜÜÜÜÜÜÜÜÜÜÜÜÜ

                         
Û°°°°°°°°°°°°°°°°°°°°°°°°Û
                         ÛÛ          Plot          ÛÛ
                         
Û°°°°°°°°°°°°°°°°°°°°°°°°Û

In his segment called "The Ugly Truth," chauvinistic 
morning show commentator Mike Alexander (Gerard Butler) 
makes his perpetually single producer (Katherine Heigl) 
the subject of a series of romantic tests in order to 
prove his theories on relationships. But will his 
experiments help her find love, or is she just a hopeless 
case? Cheryl Hines co-stars as Mike's unflappable co-anchor 
in this rom-com from the team behind Legally Blonde.

Starring: Gerard Butler, Katherine Heigl

Director: Robert Luketic
   
ÜÜÜÜÜÜÜÜÜÜÜÜÜÜÜÜÜÜÜÜÜÜÜÜÜÜÜÜÜÜÜÜÜÜÜÜÜÜÜÜÜÜÜÜÜÜÜÜÜÜÜÜÜÜÜÜÜÜÜÜÜÜÜÜÜÜÜÜÜÜ

Related torrents

Torrent NameAddedSizeSeedLeechHealth
1 Year+ - in Movies1014.83 MB478739
4 months ago - in Other697.24 MB00
4 months ago - in Other1.16 GB11
7 months ago - in Other7.45 GB73
1 Year+ - in Movies3.74 GB76

Note :

Feel free to post any comments about this torrent, including links to Subtitle, samples, screenshots, or any other relevant information. Please Dont Download anything from Comments And Links to Streaming Sites like Watch Online The Ugly Truth[2009]-WP-ScR-LW-[Torrentz] Full Movie free etc.

Comments (0 Comments)




Please login or create a FREE account to post comments

Latest Searches