Verified torrent Total Dhamaal (2019) 720p Hindi (DD 5.1) HDRip x264 AC3 by Full4movies


    Seeders : 0      Leechers : 0

Hash :D1D6891EA9AC8B19394A69D65843871DD8E4C3FB
Added :Last Month by India4movieVerified torrent uploader in Movies
Size :1.22 GB
Stream :Watch Movie Online @ Movie4u
Share :


Total Dhamaal (2019) 720p Hindi (DD 5.1) HDRip x264 AC3 by Full4movies
Use a VPN to make yourself hidden while Downloading torrents.







Warning! Please Download Torrents with a VPN.
Your IP Address is 3.90.12.112.   And Location is United States,
Your Internet Service Provider and Government can track your Online Activity!  Protect yourself from expensive lawsuits and fines NOW!
We Strongly Recommend Using Best Cheapest VPN to Anonymize your Torrenting.

Note :

Please Update (Trackers Info) Before Start Torrents Downloading to See Updated Seeders And Leechers for Batter Download Speed.

Trackers List

Tracker NameLast CheckStatusSeedersLeechers
udp://ipv4.tracker.harry.lu:80/announceLast Monthsuccess00
udp://tracker.leechers-paradise.org:6969/announceLast Monthsuccess00
udp://tracker.coppersurfer.tk:6969/announceLast Monthsuccess00
udp://explodie.org:6969/announceLast Monthsuccess00
udp://exodus.desync.com:6969/Last Monthsuccess00
udp://bt.xxx-tracker.com:2710/announceLast Monthsuccess00
udp://9.rarbg.to:2710/announceLast Monthsuccess00
udp://tracker.tiny-vps.com:6969/announceLast Monthsuccess00
udp://tracker.internetwarriors.net:1337/announceLast Monthsuccess00
udp://open.stealth.si:80/announceLast Monthsuccess00
udp://tracker.torrent.eu.org:451/announceLast Monthsuccess00
udp://tracker.cyberia.is:6969/announceLast Monthsuccess00
udp://tracker.uw0.xyz:6969/announceLast Monthsuccess00



Torrent File Content (1 file)


     Total Dhamaal (2019) 720p Hindi (DD 5.1) HDRip x264 AC3 by Full4movies.mkv -
1.22 GB



Description



https://extraimage.net/images/2019/03/24/0389e5020d4d60f7e252ae58d2aace43.jpg


General
Complete name : Total Dhamaal (2019) 720p Hindi (DD 5.1) HDRip x264 AC3 by Full4movies.mkv
Format : Matroska
Format version : Version 4
File size : 1.22 GiB
Duration : 2 h 10 min
Overall bit rate : 1 338 kb/s
Movie name : www.full4movies.me
Encoded date : UTC 2019-03-24 08:17:51
Writing application : mkvmerge v6.9.1 ('Blue Panther') 32bit built on Apr 18 2014 18:15:44
Writing library : libebml v1.3.0 + libmatroska v1.4.1

Video
ID : 1
Format : AVC
Format/Info : Advanced Video Codec
Format profile : [email protected]
Format settings : CABAC / 4 Ref Frames
Format settings, CABAC : Yes
Format settings, ReFrames : 4 frames
Codec ID : V_MPEG4/ISO/AVC
Duration : 2 h 10 min
Bit rate : 1 186 kb/s
Width : 1 280 pixels
Height : 544 pixels
Display aspect ratio : 2.35:1
Frame rate mode : Constant
Frame rate : 25.000 FPS
Color space : YUV
Chroma subsampling : 4:2:0
Bit depth : 8 bits
Scan type : Progressive
Bits/(Pixel*Frame) : 0.068
Stream size : 1.08 GiB (88%)
Writing library : x264 core 157 r2935 545de2f
Language : Hindi
Default : Yes
Forced : No

Audio
ID : 2
Format : AC-3
Format/Info : Audio Coding 3
Commercial name : Dolby Digital
Codec ID : A_AC3
Duration : 2 h 10 min
Bit rate mode : Constant
Bit rate : 128 kb/s
Channel(s) : 6 channels
Channel layout : L R C LFE Ls Rs
Sampling rate : 44.1 kHz
Frame rate : 28.711 FPS (1536 SPF)
Bit depth : 16 bits
Compression mode : Lossy
Stream size : 119 MiB (10%)
Language : Hindi
Service kind : Complete Main
Default : Yes
Forced : No

Screen Shoots
https://extraimage.net/images/2019/03/24/7f62bb93e2ed71b1e7818769d004adbe.jpg

Related torrents

Torrent NameAddedSizeSeedLeechHealth
Verified torrent
Last Month - in Movies1.3 GB5855
Verified torrent
3 months ago - in Movies1.46 GB14
Verified torrent
5 months ago - in Movies1.29 GB94
Verified torrent
Last Month - in Movies1.36 GB20
Verified torrent
Last Month - in Movies1.36 GB92
4 months ago - in Movies1.04 GB222

Note :

Feel free to post any comments about this torrent, including links to Subtitle, samples, screenshots, or any other relevant information. Please Dont Download anything from Comments, And Links to Streaming Sites like Watch Online Total Dhamaal (2019) 720p Hindi (DD 5.1) HDRip x264 AC3 by Full4movies Full Movie, Fmovies, 123Movies, Putlocker, Netflix, etc.

Comments (0 Comments)




Please login or create a FREE account to post comments

Latest Searches