TransFormers 2 Revenge Of The Fallen[2009]DvDrip-LW-[Torrentz]


    Seeders : 16      Leechers : 4

Hash :7BD8ACA15226936DFC7583FECC9FDC28E56A1BFE
Added :1 Year+ in Movies
Size :1.37 GB
Stream :Watch FREE Full Movies @ Movie4u


TransFormers 2 Revenge Of The Fallen[2009]DvDrip-LW-[Torrentz]
Download your torrents safely! And Anonymously!








Please Turn on your VPN before Downloading Torrents.
Your IP Address is 3.93.75.30.   And Location United States,
Your Internet Service Provider and Government can track your Online Activity!  Protect yourself from expensive lawsuits and fines NOW!
We Strongly Recommend Using Very Cheap VPN for P2P to Anonymize your Torrenting.

Note :

Please Update (Trackers Info) Before Start Torrents Downloading to See Updated Seeders And Leechers for Batter Download Speed.

Trackers List

Tracker NameLast CheckStatusSeedersLeechers



Torrent File Content (6 files)


TransFormers 2 Revenge Of The Fallen[2009]DvDrip-LW
    Covers
          Cover.jpg -
118.44 KB

    Info
          Movie Info.nfo -
4.22 KB

          Movie Info.txt -
3.01 KB

    Movie
          Transformers Revenge Of The Fallen[2009]DvDrip-LW.avi -
1.37 GB

    Trackers
          Torrent_downloaded_from_Demonoid.com.txt -
47 bytes

          tracked_by_h33t_com.txt -
23 bytes



Description



      ) (`-.                           (` .-') /`           ) (`-.
       ( OO ).                          `.( OO ),'            ( OO ).
      (_/.  _)-.-'),-----. ,--.     ,--./  .--.  .-'),-----.(_/.  _)-.
         `.'  ( OO'  .-.  '|  |.-') |      |  | ( OO'  .-.  '  `.'  /
             /Y   |  | |  ||  | OO )|  |   |  |,/   |  | |  |      /
             _) |  ||  ||  |`-' ||  |.'.|  |_)_) |  ||  |      |
        .'    _) |  | |  (|  '---.'|         |    |  | |  | .'    _)
       /  .'.    `'  '-'  '|      | |   ,'.   |    `'  '-'  '/  .'.  
      '--'   '--'   `-----' `------' '--'   '--'      `-----''--'   '--'


     
ßßßßßßßßßßßßßßßßßßßßßßßßßßßßßßßßßßßßßßßßßßßßßßßßßßßßßßßßßßßßßßßßßßßßßß

            
Û°°°°°°°°°°°°°°°°°°°°°°°°°°°°°°°°°°°°°°°°°°°°°°°°°°°°°Û
            ÛÛ TransFormers 2 Revenge Of The Fallen[2009]DvDrip-LW ÛÛ
            
Û°°°°°°°°°°°°°°°°°°°°°°°°°°°°°°°°°°°°°°°°°°°°°°°°°°°°°Û

File Name    : TransFormers 2 Revenge Of The Fallen[2009]DvDrip-LW
Type         : Movie
Format       : AVI
File Size    : 1.36 GB
Duration     : 02:29:52
Language     : English
Source       : DvD
Subtitles    : None
Genre        : Action | Adventure | Sci-Fi
IMDB Link    : http://www.imdb.com/title/tt1055369/
IMDB Rating  : 6.2/10
IMDB Votes   : 61,342 Votes
    
ÜÜÜÜÜÜÜÜÜÜÜÜÜÜÜÜÜÜÜÜÜÜÜÜÜÜÜÜÜÜÜÜÜÜÜÜÜÜÜÜÜÜÜÜÜÜÜÜÜÜÜÜÜÜÜÜÜÜÜÜÜÜÜÜÜÜÜÜÜÜ
 
                       
Û°°°°°°°°°°°°°°°°°°°°°°°°Û
                       ÛÛ       Video Info       ÛÛ
                       
Û°°°°°°°°°°°°°°°°°°°°°°°°Û

Format                           : MPEG-4 Visual
Format profile                   : [email protected]
Format settings, BVOP            : No
Format settings, QPel            : No
Format settings, GMC             : No warppoints
Format settings, Matrix          : Default (MPEG)
Codec ID                         : XVID
Codec ID/Hint                    : XviD
Duration                         : 2h 29mn
Bit rate                         : 1 134 Kbps
Width                            : 640 pixels
Height                           : 272 pixels
Display aspect ratio             : 2.35
Frame rate                       : 23.976 fps
Resolution                       : 24 bits
Colorimetry                      : 4:2:0
Scan type                        : Progressive
Bits/(Pixel*Frame)               : 0.272
Stream size                      : 1.19 GiB (87%)
Writing library                  : XviD 1.0.3
    
ÜÜÜÜÜÜÜÜÜÜÜÜÜÜÜÜÜÜÜÜÜÜÜÜÜÜÜÜÜÜÜÜÜÜÜÜÜÜÜÜÜÜÜÜÜÜÜÜÜÜÜÜÜÜÜÜÜÜÜÜÜÜÜÜÜÜÜÜÜÜ

                        
Û°°°°°°°°°°°°°°°°°°°°°°°°Û
                        ÛÛ      Sound Info        ÛÛ
                        
Û°°°°°°°°°°°°°°°°°°°°°°°°Û

Format                           : MPEG Audio
Format version                   : Version 1
Format profile                   : Layer 3
Codec ID                         : 55
Codec ID/Hint                    : MP3
Duration                         : 2h 29mn
Bit rate mode                    : Variable
Bit rate                         : 160 Kbps
Channel(s)                       : 2 channels
Sampling rate                    : 48.0 KHz
Resolution                       : 16 bits
Stream size                      : 172 MiB (12%)
Alignment                        : Aligned on interleaves
Interleave, duration             : 24 ms (0.58 video frame)
Interleave, preload duration     : 290 ms
Writing library                  : LAME3.90.
Encoding settings                : ABR
   
ÜÜÜÜÜÜÜÜÜÜÜÜÜÜÜÜÜÜÜÜÜÜÜÜÜÜÜÜÜÜÜÜÜÜÜÜÜÜÜÜÜÜÜÜÜÜÜÜÜÜÜÜÜÜÜÜÜÜÜÜÜÜÜÜÜÜÜÜÜÜ

                         
Û°°°°°°°°°°°°°°°°°°°°°°°°Û
                         ÛÛ          Plot          ÛÛ
                         
Û°°°°°°°°°°°°°°°°°°°°°°°°Û

Unlikely hero Sam Witwicky (Shia LaBeouf) and his 
foxy girlfriend, Mikaela Banes (Megan Fox), return 
with tough-as-nails Capt. Lennox (Josh Duhamel) to 
assist the Autobots in another epic battle against 
the evil Decepticons in this supercharged sequel to 
the 2007 megahit. Blockbuster impresario Michael Bay 
brings his trademark pyrotechnics to the proceedings, 
while comic whiz Rainn Wilson joins the cast as a 
college professor.

Starring: Megan Fox, Shia LaBeouf

Director: Michael Bay
   
ÜÜÜÜÜÜÜÜÜÜÜÜÜÜÜÜÜÜÜÜÜÜÜÜÜÜÜÜÜÜÜÜÜÜÜÜÜÜÜÜÜÜÜÜÜÜÜÜÜÜÜÜÜÜÜÜÜÜÜÜÜÜÜÜÜÜÜÜÜÜ

Related torrents

Torrent NameAddedSizeSeedLeechHealth
1 Year+ - in Movies1.37 GB00
1 Year+ - in Movies1.48 GB00
1 Year+ - in Movies2 GB00
1 Year+ - in Other21.06 GB00
1 Year+ - in Movies425.9 MB00

Note :

Feel free to post any comments about this torrent, including links to Subtitle, samples, screenshots, or any other relevant information. Watch TransFormers 2 Revenge Of The Fallen[2009]DvDrip-LW-[Torrentz] Free Movies Online, Like 123Movies, Fmovies, Putlockers, Popcorntime, Netflix or Direct Download TransFormers 2 Revenge Of The Fallen[2009]DvDrip-LW-[Torrentz] via Magnet Link.

Comments (0 Comments)




Please login or create a FREE account to post comments

Latest Searches