Transformers.Revenge.of.the.Fallen.2009.DVDRIP.H264-ZEKTORM


    Seeders : 0      Leechers : 0

Hash :988E258BBE84BCEDE3D3082FA48DDE017C5A27F6
Added :1 Year+ in Movies
Size :701.25 MB
Stream :Watch FREE Full Movies @ Movie4u


Transformers.Revenge.of.the.Fallen.2009.DVDRIP.H264-ZEKTORM
Download your torrents safely! And Anonymously!








Please Turn on your VPN before Downloading Torrents.
Your IP Address is 100.26.182.28.   And Location United States, Seattle
Your Internet Service Provider and Government can track your Online Activity!  Protect yourself from expensive lawsuits and fines NOW!
We Strongly Recommend Using Very Cheap VPN for P2P to Anonymize your Torrenting.

Note :

Please Update (Trackers Info) Before Start Torrents Downloading to See Updated Seeders And Leechers for Batter Download Speed.

Trackers List

Tracker NameLast CheckStatusSeedersLeechers
http://tracker3.itzmx.com:8080/announce5 months agofailed00
udp://tracker.trackerfix.com:80/announce5 months agofailed00
udp://tracker.torrent.eu.org:4515 months agosuccess00
udp://tracker.mg64.net:6969/announce5 months agofailed00
udp://tracker.torrent.eu.org:451/announce5 months agosuccess00
udp://open.stealth.si:80/announce5 months agosuccess00
udp://tracker.internetwarriors.net:1337/announce5 months agosuccess00
udp://tracker.tiny-vps.com:6969/announce5 months agosuccess00
udp://tracker.opentrackr.org:1337/announce5 months agosuccess00
udp://9.rarbg.to:2710/announce5 months agofailed00
udp://p4p.arenabg.ch:1337/announce5 months agofailed00
http://tracker.windsormetalbattery.com/announce5 months agofailed00
udp://tracker.btzoo.eu:80/announce5 months agofailed00
udp://glotorrents.pw:6969/announce5 months agofailed00
http://torrent-tracker.ru/announce.php5 months agofailed00
udp://bt.xxx-tracker.com:2710/announce5 months agosuccess00
udp://tracker.pirateparty.gr:6969/announce5 months agofailed00
http://bt.acg.gg:1578/announce5 months agofailed00
udp://tracker.port443.xyz:6969/announce5 months agosuccess00
udp://tracker.acg.gg:2710/announce5 months agofailed00
udp://asnet.pw:2710/announce5 months agofailed00
udp://tracker.cyberia.is:6969/announce5 months agosuccess00
udp://inferno.demonoid.pw:3418/announce5 months agofailed00
udp://tracker.cypherpunks.ru:6969/announce5 months agofailed00
udp://public.popcorn-tracker.org:6969/announce5 months agofailed00
udp://9.rarbg.me:2740/announce5 months agosuccess00
udp://9.rarbg.to:2770/announce5 months agofailed00
udp://9.rarbg.to:2730/announce5 months agofailed00
udp://9.rarbg.to:2740/announce5 months agofailed00
udp://tracker.vanitycore.co:6969/announce5 months agofailed00
udp://tracker.zer0day.to:1337/announce5 months agofailed00
udp://9.rarbg.me:2770/announce5 months agofailed00
udp://9.rarbg.me:2730/announce5 months agofailed00
udp://tracker.istole.it:80/announce5 months agofailed00
http://tracker.thepiratebay.org/announce5 months agofailed00
http://exodus.desync.com:6969/announce5 months agofailed00
udp://10.rarbg.me:80/announce5 months agofailed00
udp://exodus.desync.com:6969/announce5 months agosuccess00
http://tracker.trackerfix.com/announce5 months agofailed00
udp://9.rarbg.com:2710/announce5 months agofailed00
udp://9.rarbg.me:2710/announce5 months agosuccess00
udp://ipv4.tracker.harry.lu:80/announce5 months agosuccess00
udp://tracker.coppersurfer.tk:6969/announce5 months agofailed00
udp://tracker.openbittorrent.com:80/announce5 months agosuccess00
udp://tracker.publicbt.com:80/announce5 months agofailed00
udp://open.demonii.com:1337/announce5 months agofailed00
udp://tracker.ccc.de:80/announce5 months agofailed00
udp://tracker.token.ro:80/announce5 months agofailed00
http://tracker.ilibr.org:6969/announce5 months agofailed00
http://tracker.publicbt.com/announce5 months agofailed00
http://tracker.best-torrents.net:6969/announce5 months agofailed00
http://torrentino.net:4444/announce5 months agofailed00
udp://tracker.coppersurfer.tk:80/announce5 months agofailed00
udp://tracker.justseed.it:1337/announce5 months agofailed00
http://share.camoe.cn:8080/announce5 months agofailed00
udp://thetracker.org:80/announce5 months agosuccess00
udp://eddie4.nl:6969/announce5 months agofailed00
udp://shadowshq.yi.org:6969/announce5 months agofailed00
http://torrent.gresille.org/announce5 months agofailed00
udp://ipv6.tracker.harry.lu:80/announce5 months agosuccess00
udp://tracker.ilibr.org:6969/announce5 months agofailed00
udp://tracker.zond.org:80/announce5 months agofailed00
http://tracker.mightynova.com:4315/announce5 months agofailed00
udp://open.demonii.com:805 months agofailed00
udp://tracker.coppersurfer.tk:805 months agofailed00
http://announce.torrentsmd.com:6969/announce5 months agofailed00
http://bigfoot1942.sektori.org:6969/announce5 months agofailed00



Torrent File Content (2 files)


Transformers.Revenge.of.the.Fallen.2009.DVDRIP.H264-ZEKTORM
     READ.hlp -
12.19 KB

     Transformers.Revenge.of.the.Fallen.2009_2.mp4 -
701.24 MB



Description



Title                            : Transformers: Revenge of the Fallen
Year : 2009
Genre : Action | Adventure | Sci-Fi
iMDB URL : http://www.imdb.com/title/tt1055369/
Awards : 2 wins & 1 nomination

Complete name : Transformers.Revenge.of.the.Fallen.2009.DVDRIP.H264-ZEKTORM.mp4
Format : MPEG-4
Format profile : Base Media
Codec ID : isom
File size : 701 MiB
Duration : 2h 29mn
Overall bit rate : 654 Kbps

Video
Format : AVC
Format/Info : Advanced Video Codec
Format profile : [email protected]
Format settings, CABAC : Yes
Codec ID : avc1
Codec ID/Info : Advanced Video Coding
Duration : 2h 29mn
Bit rate mode : Variable
Bit rate : 571 Kbps
Maximum bit rate : 4062 Kbps
Width : 800 pixels
Height : 320 pixels
Display aspect ratio : 2.500
Frame rate mode : Constant
Frame rate : 23.976 fps
Resolution : 24 bits
Colorimetry : 4:2:0
Scan type : Progressive
Bits/(Pixel*Frame) : 0.093
Stream size : 612 MiB (87%)

Audio
Format : AAC
Format/Info : Advanced Audio Codec
Format version : Version 4
Format profile : LC
Format settings, SBR : Yes
Format settings, PS : No
Codec ID : 40
Duration : 2h 29mn
Bit rate mode : Variable
Bit rate : 80.1 Kbps
Maximum bit rate : 112 Kbps
Channel(s) : 2 channels
Channel positions : L R
Sampling rate : 48.0 KHz
Resolution : 16 bits
Stream size : 85.9 MiB (12%)
Title : English
Language : English

Related torrents

Torrent NameAddedSizeSeedLeechHealth
1 Year+ - in Movies701.34 MB7126
8 months ago - in Movies50.41 GB00
8 months ago - in Movies1.9 GB1618
9 months ago - in Other12.66 GB03
10 months ago - in Movies53.05 GB22

Note :

Feel free to post any comments about this torrent, including links to Subtitle, samples, screenshots, or any other relevant information. Watch Transformers.Revenge.of.the.Fallen.2009.DVDRIP.H264-ZEKTORM Free Movies Online, Like 123Movies, Fmovies, Putlockers, Popcorntime, Netflix or Direct Download Transformers.Revenge.of.the.Fallen.2009.DVDRIP.H264-ZEKTORM via Magnet Link.

Comments (0 Comments)




Please login or create a FREE account to post comments

Latest Searches