Transformers-Revenge Of The Fallen [2009] BRRip 1280x528 Mp4.H264.AAC 5.1 ch.3Li


    Seeders : 6      Leechers : 4

Warning! Please Download Torrents with a VPN.
Your IP Address is 54.163.20.123.   And Location is United States, Ashburn
Your Internet Service Provider and Government can track your Online Activity!  Protect yourself from expensive lawsuits and fines NOW!
We Strongly Recommend Using Best Cheapest VPN to Anonymize your Torrenting.

Note :

Please Update (Trackers Info) Before Start Torrents Downloading to See Updated Seeders And Leechers for Batter Download Speed.

Trackers List

Tracker NameLast CheckStatusSeedersLeechers



Torrent File Content (15 files)


Transformers-Revenge Of The Fallen [2009] BRRip 1280x528 Mp4.H264.AAC 5.1 ch.3Li
    info
          3Li info movie.txt -
5.05 KB

          Read Me if U Want.txt -
992 bytes

          tracked_by_h33t_com.txt -
23 bytes

     Transformers-Revenge Of The Fallen.mp4 -
2.14 GB

     snapshot20090929044534.jpg -
245.72 KB

     snapshot20090929041549.jpg -
148.69 KB

     snapshot20090929044349.jpg -
144.42 KB

     snapshot20090929043617.jpg -
131.9 KB

     snapshot20090929042549.jpg -
114.41 KB

     snapshot20090929041247.jpg -
108.01 KB

     snapshot20090929042232.jpg -
90.53 KB

     snapshot20090929043916.jpg -
89.21 KB

     snapshot20090929042118.jpg -
78 KB

     snapshot20090929042518.jpg -
74.33 KB

     snapshot20090929042721.jpg -
72.18 KB



Description



General
Complete name : Transformers-Revenge Of The Fallen.mp4
Format : MPEG-4
Format profile : Base Media
Codec ID : isom
File size : 2.14 GiB
Duration : 2h 29mn
Overall bit rate : 2 041 Kbps
Encoded date : UTC 2009-09-28 01:00:45
Tagged date : UTC 2009-09-28 01:00:45

Video
ID : 1
Format : AVC
Format/Info : Advanced Video Codec
Format profile : [email protected]
Format settings, CABAC : Yes
Format settings, ReFrames : 3 frames
Codec ID : avc1
Codec ID/Info : Advanced Video Coding
Duration : 2h 29mn
Bit rate mode : Variable
Bit rate : 1 818 Kbps
Maximum bit rate : 5 293 Kbps
Width : 1 280 pixels
Height : 528 pixels
Display aspect ratio : 2.40:1
Frame rate mode : Constant
Frame rate : 23.976 fps
Resolution : 24 bits
Colorimetry : 4:2:0
Scan type : Progressive
Bits/(Pixel*Frame) : 0.112
Stream size : 1.90 GiB (89%)
Title : Transformers-Revenge Of The Fallen By 3Li
Writing library : x264 core 68

Audio
ID : 2
Format : AAC
Format/Info : Advanced Audio Codec
Format version : Version 4
Format profile : LC
Format settings, SBR : No
Codec ID : 40
Duration : 2h 29mn
Bit rate mode : Variable
Bit rate : 220 Kbps
Maximum bit rate : 236 Kbps
Channel(s) : 6 channels
Channel positions : Front: L C R, Rear: L R, LFE
Sampling rate : 48.0 KHz
Resolution : 16 bits
Stream size : 235 MiB (11%)
Title : Transformers-Revenge Of The Fallen
Language : English
Encoded date : UTC 2009-09-28 01:02:02
Tagged date : UTC 2009-09-28 01:02:10

Related torrents

Torrent NameAddedSizeSeedLeechHealth
1 Year+ - in Movies12.23 KB00
1 Year+ - in Movies1.84 GB01
1 Year+ - in Movies2.35 GB2838
1 Year+ - in Movies2.87 GB47
1 Year+ - in Movies1.15 GB00

Note :

Feel free to post any comments about this torrent, including links to Subtitle, samples, screenshots, or any other relevant information. Please Dont Download anything from Comments And Links to Streaming Sites like Watch Online Transformers-Revenge Of The Fallen [2009] BRRip 1280x528 Mp4.H264.AAC 5.1 ch.3Li Full Movie free etc.

Comments (0 Comments)




Please login or create a FREE account to post comments

Latest Searches