Tumhari Sulu 2017 720p Esub HD Hindi GOPISAHI


    Seeders : 0      Leechers : 0

Hash :C61B5880C401A1D211393B6D7542CD225E7742B6
Added :8 months ago in Movies - Movies
Size :557.53 MB
Stream :Watch Full Movie Online @ Movie4u
Share :


Tumhari Sulu 2017 720p Esub HD Hindi GOPISAHI
Download Direct And Anonymously







Warning! Do not Download Torrents Without a VPN!
Your IP Address is 54.158.199.217.   And Location is United States, Ashburn
Your Internet Provider and Government can track your torrent Activity!  Hide your IP ADDRESS with a VPN!
We Strongly Recommend Using Best Cheapest VPN to Anonymize your Torrenting.

Note :

Please Update (Trackers Info) Before Start Torrents Downloading to See Updated Seeders And Leechers for Batter Download Speed.

Trackers List

Tracker NameLast CheckStatusSeedersLeechers




Torrent File Content (1 file)


     Tumhari Sulu 2017 720p Esub HD Hindi GOPISAHI.mkv -
557.53 MB



Description



Movies : Drama : HD 720p : Hindi
Loading... (function(){ var D=new Date(),d=document,b='body',ce='createElement',ac='appendChild',st='style',ds='display',n='none',gi='getElementById'; var i=d[ce]('iframe');i[st][ds]=n;d[gi]("M244525ScriptRootC122102")[ac](i);try{var iw=i.contentWindow.document;iw.open();iw.writeln("");iw.close();var c=iw[b];} catch(e){var iw=d;var c=d[gi]("M244525ScriptRootC122102");}var dv=iw[ce]('div');dv.id="MG_ID";dv[st][ds]=n;dv.innerHTML=122102;c[ac](dv); var s=iw[ce]('script');s.async='async';s.defer='defer';s.charset='utf-8';s.src="//jsc.adskeeper.co.uk/d/e/demonoid.pw.122102.js?t="+D.getYear()+D.getMonth()+D.getDate()+D.getHours();c[ac](s);})();

Format : Matroska
Format version : Version 4 / Version 2
File size : 558 MiB
Duration : 2 h 14 min
Overall bit rate : 580 kb/s
Movie name : Tumhari Sulu 2017 GOPISAHI

Video
Format : AVC
Codec ID : V_MPEG4/ISO/AVC
Duration : 2 h 14 min
Bit rate : 500 kb/s
Width : 1 280 pixels
Height : 720 pixels
Display aspect ratio : 16:9
Frame rate mode : Constant
Frame rate : 25.000 FPS
Stream size : 481 MiB (86%)
Writing library : x264
Language : Hindi

Audio
Format : AAC
Duration : 2 h 14 min
Bit rate : 77.3 kb/s
Channel(s) : 6 channels
Channel positions : Front: L C R, Side: L R, LFE
Sampling rate : 44.1 kHz
Frame rate : 43.066 FPS (1024 SPF)
Stream size : 74.4 MiB (13%)
Language : Hindi

Text
Language : English


Show Demonoid some love with BitCoin: 1DNoid2VRyfYn9T38Z1SZ5XncG7WMgCeUL How to get BitCoin?

Facebook Twitter Google Digg Reddit LinkedIn StumbleUpon Email

Related torrents

Torrent NameAddedSizeSeedLeechHealth
8 months ago - in Movies506.68 MB120
9 months ago - in Movies518.69 MB8522
Verified torrent
9 months ago - in Movies885.59 MB30
Verified torrent
8 months ago - in Movies1.25 GB93
Verified torrent
11 months ago - in Movies758.69 MB146
9 months ago - in Movies607.27 MB132

Note :

Feel free to post any comments about this torrent, including links to Subtitle, samples, screenshots, or any other relevant information. Please Dont Download anything from Comments, And Links to Streaming Sites like Watch Online Tumhari Sulu 2017 720p Esub HD Hindi GOPISAHI Full Movie, Fmovies, 123Movies, Putlocker, Netflix, etc.

Comments (0 Comments)




Please login or create a FREE account to post comments

Latest Searches