Vampire Killers 2009 1080p BluRay H264 AAC-RARBG


    Seeders : 0      Leechers : 0

Hash :8BE9145DBF03F2E28DA87AA30136BFFAB01452A5
Added :1 Year+ in Other - Other
Size :1.65 GB
Stream :Watch FREE Full Movies @ Movie4u


Vampire Killers 2009 1080p BluRay H264 AAC-RARBG
Download your torrents safely! And Anonymously!








Please Turn on your VPN before Downloading Torrents.
Your IP Address is 3.227.233.6.   And Location United States,
Your Internet Service Provider and Government can track your Online Activity!  Protect yourself from expensive lawsuits and fines NOW!
We Strongly Recommend Using Very Cheap VPN for P2P to Anonymize your Torrenting.

Note :

Please Update (Trackers Info) Before Start Torrents Downloading to See Updated Seeders And Leechers for Batter Download Speed.

Trackers List

Tracker NameLast CheckStatusSeedersLeechers



Torrent File Content (5 files)


Vampire.Killers.2009.1080p.BluRay.H264.AAC-RARBG
     RARBG.COM.mp4 -
992.93 KB

     RARBG.COM.txt -
34 bytes

    Subs
          subs.srt -
63.13 KB

     Vampire.Killers.2009.1080p.BluRay.H264.AAC-RARBG.mp4 -
1.65 GB

     Vampire.Killers.2009.1080p.BluRay.H264.AAC-RARBG.nfo -
3.97 KB



Description



 							
https://rarbg.to
Vampire.Killers.2009.1080p.BluRay.H264.AAC-RARBG

image
Screens :

image

image

image

image

image
Mediainfo :

Video
ID : 1
Format : AVC
Format/Info : Advanced Video Codec
Format profile : [email protected]
Format settings, CABAC : Yes
Format settings, ReFrames : 4 frames
Codec ID : avc1
Codec ID/Info : Advanced Video Coding
Duration : 1h 26mn
Bit rate : 2 500 Kbps
Width : 1 920 pixels
Height : 800 pixels
Display aspect ratio : 2.40:1
Frame rate mode : Constant
Frame rate : 23.976 (23976/1000) fps
Color space : YUV
Chroma subsampling : 4:2:0
Bit depth : 8 bits
Scan type : Progressive
Bits/(Pixel*Frame) : 0.068
Stream size : 1.51 GiB (92%)
Writing library : x264 core 148 r2638M 7599210
Encoding settings : cabac=1 / ref=4 / deblock=1:-1:-1 / analyse=0x3:0x113 / me=umh / subme=9 / psy=1 / psy_rd=1.00:0.15 / mixed_ref=1 / me_range=24 / chroma_me=1 / trellis=2 / 8x8dct=1 / cqm=0 / deadzone=21,11 / fast_pskip=1 / chroma_qp_offset=-3 / threads=32 / lookahead_threads=4 / sliced_threads=0 / nr=0 / decimate=1 / interlaced=0 / bluray_compat=0 / constrained_intra=0 / bframes=3 / b_pyramid=2 / b_adapt=2 / b_bias=0 / direct=3 / weightb=1 / open_gop=0 / weightp=2 / keyint=250 / keyint_min=25 / scenecut=40 / intra_refresh=0 / rc_lookahead=50 / rc=2pass / mbtree=1 / bitrate=2500 / ratetol=1.0 / qcomp=0.60 / qpmin=0 / qpmax=69 / qpstep=4 / cplxblur=20.0 / qblur=0.5 / vbv_maxrate=31250 / vbv_bufsize=31250 / nal_hrd=none / filler=0 / ip_ratio=1.40 / aq=3:1.00
Encoded date : UTC 2016-05-25 23:10:39
Tagged date : UTC 2016-05-25 23:10:39

Audio
ID : 2
Format : AAC
Format/Info : Advanced Audio Codec
Format profile : LC
Codec ID : 40
Duration : 1h 26mn
Bit rate mode : Constant
Bit rate : 224 Kbps
Channel(s) : 2 channels
Channel(s)_Original : 6 channels
Channel positions : Front: L C R, Side: L R, LFE
Sampling rate : 48.0 KHz
Frame rate : 46.875 fps (1024 spf)
Compression mode : Lossy
Stream size : 138 MiB (8%)
Language : English
Default : Yes
Alternate group : 1
Encoded date : UTC 2016-05-25 23:10:39
Tagged date : UTC 2016-05-25 23:10:39




Related torrents

Torrent NameAddedSizeSeedLeechHealth
1 Year+ - in Movies1.05 GB00
1 Year+ - in Movies1.26 GB50
9 months ago - in Movies1.69 GB00
1 Year+ - in Movies2.75 GB1511
8 months ago - in Movies2 GB11

Note :

Feel free to post any comments about this torrent, including links to Subtitle, samples, screenshots, or any other relevant information. Watch Vampire Killers 2009 1080p BluRay H264 AAC-RARBG Free Movies Online, Like 123Movies, Fmovies, Putlockers, Popcorntime, Netflix or Direct Download Vampire Killers 2009 1080p BluRay H264 AAC-RARBG via Magnet Link.

Comments (0 Comments)




Please login or create a FREE account to post comments

Latest Searches