WWE Monday Night Raw 2018 05 07 HDTV x264 700MB [ HDFilmBoss ]


    Seeders : 0      Leechers : 0


Please Turn on your VPN before Downloading Torrents.
Your IP Address is 34.239.158.107.   And Location United States, Ashburn
Your Internet Service Provider and Government can track your Online Activity!  Protect yourself from expensive lawsuits and fines NOW!
We Strongly Recommend Using Very Cheap VPN for P2P to Anonymize your Torrenting.

Note :

Please Update (Trackers Info) Before Start Torrents Downloading to See Updated Seeders And Leechers for Batter Download Speed.

Trackers List

Tracker NameLast CheckStatusSeedersLeechers
udp://mgtracker.org:6969/announce1 Year+success00
udp://tracker.blackunicorn.xyz:6969/announce1 Year+success00
udp://p4p.arenabg.ch:1337/announce1 Year+success00
udp://9.rarbg.to:2710/announce1 Year+success00
udp://tracker.opentrackr.org:1337/announce1 Year+success00
udp://tracker.mg64.net:6881/announce1 Year+success00
udp://tracker.internetwarriors.net:1337/announce1 Year+success00
udp://tracker.x4w.co:6969/announce1 Year+success00
udp://tracker.sktorrent.net:6969/announce1 Year+success00
udp://tracker4.piratux.com:6969/announce1 Year+success00
udp://tracker.mgtracker.org:2710/announce1 Year+success00
http://tracker.opentrackr.org/announce1 Year+success00
udp://tracker.zer0day.to:1337/announce1 Year+success00
udp://tracker.vanitycore.co:6969/announce1 Year+success00
udp://tracker.pirateparty.gr:6969/announce1 Year+success00
udp://public.popcorn-tracker.org:6969/announce1 Year+success00
udp://asnet.pw:2710/announce1 Year+success00
http://tracker.openbittorrent.com/announce1 Year+failed00
udp://glotorrents.pw:6969/announce1 Year+success00
udp://tracker.trackerfix.com:80/announce1 Year+success00
udp://tracker.pomf.se:80/announce1 Year+success00
http://tracker2.wasabii.com.tw:6969/announce1 Year+success00
udp://eddie4.nl:6969/announce1 Year+success00
udp://explodie.org:6969/announce1 Year+success00
udp://castradio.net:6969/announce1 Year+success00
http://announce.torrentsmd.com:6969/announce1 Year+success00
http://bigfoot1942.sektori.org:6969/announce1 Year+success00
udp://tracker.coppersurfer.tk:6969/announce1 Year+success00
udp://tracker.leechers-paradise.org:6969/announce1 Year+success00
http://tracker.trackerfix.com/announce1 Year+success00
udp://9.rarbg.me:2710/announce1 Year+success00
udp://ipv4.tracker.harry.lu:80/announce1 Year+success00
http://tracker.publicbt.com/announce1 Year+failed00



Torrent File Content (1 file)


     WWE Monday Night Raw 2018 05 07 HDTV x264 700MB-HDFilmBoss.Com.mp4 -
694.65 MB



Description



General
Complete name:WWE Monday Night Raw 2018 05 07 HDTV x264 700MB-HDFilmBoss.Com.mp4
Format : MPEG-4
Format profile : Base Media
Codec ID : isom (isom/iso2/avc1/mp41)
File size : 695 MiB
Duration : 2 h 16 min
Overall bit rate : 714 kb/s

Video
ID : 1
Format : AVC
Format settings : CABAC / 4 Ref Frames
Format settings, CABAC : Yes
Format settings, RefFrames : 4 frames
Codec ID : avc1
Codec ID/Info : Advanced Video Coding
Duration : 2 h 16 min
Bit rate : 642 kb/s
Width : 704 pixels
Height : 400 pixels
Display aspect ratio : 16:9
Color space : YUV
Chroma subsampling : 4:2:0
Bit depth : 8 bits
Scan type : Progressive
Bits/(Pixel*Frame) : 0.091
Stream size : 626 MiB (90%)
Writing library : x264

Audio
ID : 2
Format : AAC
Format/Info : Advanced Audio Codec
Format profile : LC
Duration : 2 h 16 min
Bit rate : 64.0 kb/s
Channel(s) : 2 channels
Channel(s)_Original : 1 channel
Sampling rate : 44.1 kHz
Stream size : 62.3 MiB (9%)
Default : Yes
Alternate group : 1
[quote][/quote]

https://i.imgur.com/yNt2A5B.gif

https://i.imgur.com/Niuga4E.jpg

https://i.imgur.com/vcpoTP8.jpg

https://i.imgur.com/L0w6DBP.jpg

Related torrents

Torrent NameAddedSizeSeedLeechHealth
1 Year+ - in TV shows600.34 MB164
1 Year+ - in TV shows4.43 GB30
1 Year+ - in TV shows1.46 GB31
1 Year+ - in TV shows4.43 GB32
1 Year+ - in TV shows1.33 GB135

Note :

Feel free to post any comments about this torrent, including links to Subtitle, samples, screenshots, or any other relevant information. Watch WWE Monday Night Raw 2018 05 07 HDTV x264 700MB [ HDFilmBoss ] Free Movies Online, Like 123Movies, Fmovies, Putlockers, Popcorntime, Netflix or Direct Download WWE Monday Night Raw 2018 05 07 HDTV x264 700MB [ HDFilmBoss ] via Magnet Link.

Comments (0 Comments)




Please login or create a FREE account to post comments

Latest Searches