Waterworld [1995] 1280x688 HD.Mp4.H264.AAC 5.1 ch.3Li


    Seeders : 22      Leechers : 21

Warning! Please Download Torrents with a VPN.
Your IP Address is 18.234.51.17.   And Location is United States, Ashburn
Your Internet Service Provider and Government can track your Online Activity!  Protect yourself from expensive lawsuits and fines NOW!
We Strongly Recommend Using FREE VPN for P2P to Anonymize your Torrenting.

Note :

Please Update (Trackers Info) Before Start Torrents Downloading to See Updated Seeders And Leechers for Batter Download Speed.

Trackers List

Tracker NameLast CheckStatusSeedersLeechers



Torrent File Content (13 files)


Waterworld [1995] 1280x688 HD.Mp4.H264.AAC 5.1 ch.3Li
    Subtitle
          Waterworld English.srt -
80.35 KB

          Waterworld Czech.srt -
62.46 KB

          3Li info movie.txt -
4.91 KB

          Read Me if U Want.txt -
992 bytes

          tracked_by_h33t_com.txt -
23 bytes

     Waterworld.mp4 -
1.46 GB

     snapshot20090926094634.jpg -
153.32 KB

     snapshot20090926094600.jpg -
141.94 KB

     snapshot20090926094739.jpg -
134.08 KB

     snapshot20090926094610.jpg -
105.95 KB

     snapshot20090926094400.jpg -
101.87 KB

     snapshot20090926094234.jpg -
96.56 KB

     snapshot20090926094319.jpg -
77.34 KB



Description



General
Complete name : Waterworld.mp4
Format : MPEG-4
Format profile : Base Media
Codec ID : isom
File size : 1.46 GiB
Duration : 2h 15mn
Overall bit rate : 1 541 Kbps
Encoded date : UTC 2009-09-25 06:33:07
Tagged date : UTC 2009-09-25 06:33:07

Video
ID : 1
Format : AVC
Format/Info : Advanced Video Codec
Format profile : [email protected]
Format settings, CABAC : Yes
Format settings, ReFrames : 3 frames
Codec ID : avc1
Codec ID/Info : Advanced Video Coding
Duration : 2h 15mn
Bit rate mode : Variable
Bit rate : 1 330 Kbps
Maximum bit rate : 5 040 Kbps
Width : 1 280 pixels
Height : 688 pixels
Display aspect ratio : 1.860
Frame rate mode : Constant
Frame rate : 23.976 fps
Resolution : 24 bits
Colorimetry : 4:2:0
Scan type : Progressive
Bits/(Pixel*Frame) : 0.063
Stream size : 1.26 GiB (86%)
Title : Waterworld By 3Li
Writing library : x264 core 68

Audio
ID : 2
Format : AAC
Format/Info : Advanced Audio Codec
Format version : Version 4
Format profile : LC
Format settings, SBR : No
Codec ID : 40
Duration : 2h 15mn
Bit rate mode : Variable
Bit rate : 220 Kbps
Maximum bit rate : 232 Kbps
Channel(s) : 6 channels
Channel positions : Front: L C R, Rear: L R, LFE
Sampling rate : 48.0 KHz
Resolution : 16 bits
Stream size : 212 MiB (14%)
Title : Waterworld
Language : English
Encoded date : UTC 2009-09-25 06:33:59
Tagged date : UTC 2009-09-25 06:34:08

Related torrents

Torrent NameAddedSizeSeedLeechHealth
1 Year+ - in Movies1.42 GB00
1 Year+ - in Movies1.45 GB00
1 Year+ - in Movies1.44 GB48
1 Year+ - in Anime.1.36 GB16
1 Year+ - in Anime.1.36 GB20

Note :

Feel free to post any comments about this torrent, including links to Subtitle, samples, screenshots, or any other relevant information. Please Dont Download anything from Comments And Links to Streaming Sites like Watch Online Waterworld [1995] 1280x688 HD.Mp4.H264.AAC 5.1 ch.3Li Full Movie free etc.

Comments (0 Comments)




Please login or create a FREE account to post comments

Latest Searches