White Lies (1998)


    Seeders : 0      Leechers : 1

Hash :57384C915E3DFAD53C2D05C1A44F066A32B7EE15
Added :1 Year+ in Movies
Size :699.6 MB
Stream :Watch FREE Full Movies @ Movie4u


White Lies (1998)
Download your torrents safely! And Anonymously!








Please Turn on your VPN before Downloading Torrents.
Your IP Address is 34.226.234.20.   And Location United States, Ashburn
Your Internet Service Provider and Government can track your Online Activity!  Protect yourself from expensive lawsuits and fines NOW!
We Strongly Recommend Using Very Cheap VPN for P2P to Anonymize your Torrenting.

Note :

Please Update (Trackers Info) Before Start Torrents Downloading to See Updated Seeders And Leechers for Batter Download Speed.

Trackers List

Tracker NameLast CheckStatusSeedersLeechers



Torrent File Content (1 file)


Too many Files to show...


Description



White Lies (1998) (TVrip) CZ language NO subtitles


Catherine (Sarah Polley), a first-year university student who feels alienated from the liberal campus, joins a hate group through the Internet and becomes their voice, only to gradually question their beliefs even as she becomes more deeply involved.
Written by Sean Gallagher

Media info
AVI
Format/ : Audio Video Interleave
700 MiB
Duration/String : 1h 28mn
BitRate : 1 107 Kbps

Video
ID : 0
Format : MPEG-4 Visual
Format settings, BVOP : Ne
Format settings, QPel : Ne
Format settings, GMC : 0 warppoint
Format settings, Matrix : Default (H.263)
Codec ID : DX50
Codec ID/Hint : DivX 5
Duration : 1h 28mn
Bit rate : 937 Kbps
Width : 640pixely
Height : 480pixely
Display aspect ratio : 4:3
Frame rate : 25,000 fps
Resolution : 24 bits
Colorimetry : 4:2:0
Scan type : Progressive
Bits/(Pixel*Frame) : 0.122
Stream size : 592 MiB (85%)
Writing library : DivX 6.2.1 (UTC 2006-04)

Audio
ID : 1
Format : MPEG Audio
Format version : Version 1
Format profile : Layer 3
Codec ID : 55
Codec ID/Hint : MP3
Duration : 1h 28mn
Bit rate : 160 Kbps
Channel(s) : 2 kanály
Sampling rate : 44,1 KHz
Resolution : 16 bits
Stream size : 101 MiB (14%)
Interleave, duration : 40 ms (1.00 video frames)
Interleave, preload duration : 500 ms





Related torrents

Torrent NameAddedSizeSeedLeechHealth
8 months ago - in Other433.15 KB73
9 months ago - in Other10.1 MB81
1 Year+ - in Other215.37 KB00
1 Year+ - in TV shows339.94 MB00
1 Year+ - in Music12.32 MB00

Note :

Feel free to post any comments about this torrent, including links to Subtitle, samples, screenshots, or any other relevant information. Watch White Lies (1998) Free Movies Online, Like 123Movies, Fmovies, Putlockers, Popcorntime, Netflix or Direct Download White Lies (1998) via Magnet Link.

Comments (0 Comments)




Please login or create a FREE account to post comments

Latest Searches