Year One [Ipod, PSP, Zune] [DVD Rip]


    Seeders : 77      Leechers : 40

Hash :5A495883663C1D1F3AB2255980D40D7935F5415C
Added :1 Year+ in Movies
Size :636.92 MB
Stream :Watch FREE Full Movies @ Movie4u


Year One [Ipod, PSP, Zune] [DVD Rip]
Download your torrents safely! And Anonymously!








Please Turn on your VPN before Downloading Torrents.
Your IP Address is 34.231.247.139.   And Location United States, Ashburn
Your Internet Service Provider and Government can track your Online Activity!  Protect yourself from expensive lawsuits and fines NOW!
We Strongly Recommend Using Very Cheap VPN for P2P to Anonymize your Torrenting.

Note :

Please Update (Trackers Info) Before Start Torrents Downloading to See Updated Seeders And Leechers for Batter Download Speed.

Trackers List

Tracker NameLast CheckStatusSeedersLeechers



Torrent File Content (3 files)


Year One [Ipod, PSP, Zune]
     Year One.mp4 -
636.92 MB

     Another great torrent!.txt -
122 bytes

     Torrent downloaded from Demonoid.com.txt -
47 bytes



Description



????????
???? /?/
????/?/
??? /?/????
?????|????
??????-??? ??BloodyRoses??
?????????? ? ? ? ? ? ? ? ?? ? ? ? ? ? ?
??????????
????????



*Tested*
Tested on Ipod Touch 2nd gen 32gb and Ipod Classic 80Gb

Converting any Movies, TV shows, Music Videos, Music ect please post your request in the comments.

-----------------------------------------------------------------------------------

Do you want to host my file on your website? Want your tracker added to my torrents? Just post your tracker in the comments and I will add it to all of the torrents I release.

-----------------------------------------------------------------------------------

If you found something in any of my Torrents, consider that it may be a false positive and if you are sure please report it to me first.

Report Bad Torrents Here:
http://forum.suprbay.org/forumdisplay.php?fid=29

Please Leave A Comment

-----------------------------------------------------------------------------------

Screens:
http://bayimg.com/image/nadlnaacp.jpg

-----------------------------------------------------------------------------------

Format : MPEG-4
Format profile : Base Media
Codec ID : isom
File size : 637 MiB
Duration : 1h 39mn
Overall bit rate : 895 Kbps
Movie name : Year One
Encoded date : UTC 2009-09-15 11:41:57
Tagged date : UTC 2009-09-15 11:41:57
Writing application : Lavf52.31.0

Video
ID : 1
Format : AVC
Format/Info : Advanced Video Codec
Format profile : [email protected]
Format settings, CABAC : No
Format settings, ReFrames : 3 frames
Codec ID : avc1
Codec ID/Info : Advanced Video Coding
Duration : 1h 39mn
Bit rate mode : Variable
Bit rate : 762 Kbps
Width : 480 pixels
Height : 252 pixels
Display aspect ratio : 1.897
Frame rate mode : Variable
Frame rate : 23.957 fps
Minimum frame rate : 11.988 fps
Maximum frame rate : 23.976 fps
Original frame rate : 23.976 fps
Resolution : 24 bits
Colorimetry : 4:2:0
Scan type : Progressive
Bits/(Pixel*Frame) : 0.263
Stream size : 543 MiB (85%)
Encoded date : UTC 2009-09-15 11:41:57
Tagged date : UTC 2009-09-15 11:41:57

Audio
ID : 2
Format : AAC
Format/Info : Advanced Audio Codec
Format version : Version 4
Format profile : LC
Format settings, SBR : No
Codec ID : 40
Duration : 1h 39mn
Bit rate mode : Variable
Bit rate : 128 Kbps
Channel(s) : 2 channels
Channel positions : L R
Sampling rate : 48.0 KHz
Resolution : 16 bits
Stream size : 91.1 MiB (14%)
Encoded date : UTC 2009-09-15 11:41:57
Tagged date : UTC 2009-09-15 11:41:57

Related torrents

Torrent NameAddedSizeSeedLeechHealth
1 Year+ - in Movies671.82 MB153
1 Year+ - in Movies691.01 MB00
1 Year+ - in Movies961.47 MB044
1 Year+ - in Movies380.08 MB00
1 Year+ - in Movies200.03 MB00

Note :

Feel free to post any comments about this torrent, including links to Subtitle, samples, screenshots, or any other relevant information. Watch Year One [Ipod, PSP, Zune] [DVD Rip] Free Movies Online, Like 123Movies, Fmovies, Putlockers, Popcorntime, Netflix or Direct Download Year One [Ipod, PSP, Zune] [DVD Rip] via Magnet Link.

Comments (0 Comments)




Please login or create a FREE account to post comments

Latest Searches