josh wink-higher state of consciousness[voldemort5][h33t com]


    Seeders : 2      Leechers : 2

Torrent Hash :00DBD8F3EB6BD61C4655A5AD78E50B4C28A985E5
Torrent Added :1 Year+ in Music - Music
Torrent Size :30.66 MB
VPN :Download torrent Safely and Anonymously with Cheap VPN : Get VPN NOW


josh wink-higher state of consciousness[voldemort5][h33t com]
Fast And Direct Download Safely And Anonymously!










Note :

Please Update (Trackers Info) Before Start "josh wink-higher state of consciousness[voldemort5][h33t com]" Torrent Downloading to See Updated Seeders And Leechers for Batter Torrent Download Speed.

Trackers List

Tracker NameLast CheckStatusSeedersLeechers



Torrent File Content (3 files)


josh wink-higher state of consciousness[voldemort5][h33t.com]
     dj wink-higher state of consciousness.avi -
24.94 MB

     josh wink-higher state of consciousness[voldemort5][h33t.com].mp3 -
5.72 MB

     tracked_by_h33t_com.txt -
23 bytes



Description



Josh Wink's most unforgettable house track from 90's (if i am guessing it right)... still have the charm and still make
me grab some BEERS !!!  this is one of the version of the track although the original track is around 6 min 16 sec
long......
I have also added the original track(audio) with it.

Enjoy the track guyz .... Keep on rocking....
Plz comment and PLZ SEED......
Cheers!!!!!!!!


General
Format : AVI
Format/Info : Audio Video Interleave
File size : 24.9 MiB
Duration : 3mn 36s
Overall bit rate : 965 Kbps

Video
Format : S-Mpeg 4 v2
Codec ID : MP42
Codec ID/Info : Microsoft MPEG-4 V2
Duration : 3mn 36s
Bit rate : 891 Kbps
Width : 480 pixels
Height : 360 pixels
Display aspect ratio : 4:3
Frame rate : 25.000 fps
Resolution : 24 bits
Bits/(Pixel*Frame) : 0.206
Stream size : 22.9 MiB (92%)

Audio
ID : 1
Format : MPEG Audio
Format version : Version 1
Format profile : Layer 3
Codec ID : 55
Codec ID/Hint : MP3
Duration : 3mn 36s
Bit rate mode : Constant
Bit rate : 64.0 Kbps
Channel(s) : 2 channels
Sampling rate : 44.1 KHz
Resolution : 16 bits
Stream size : 1.65 MiB (7%)
Alignment : Aligned on interleaves
Interleave, duration : 26 ms (0.65 video frame)

Related torrents

Torrent NameAddedSizeSeedLeechHealth
1 Year+ - in Music7.95 MB00
1 Year+ - in Music38.8 MB10
1 Year+ - in Music26.59 MB30
1 Year+ - in Music182.86 MB04
1 Year+ - in Music53.2 MB17

Note :

Feel free to post any comments about this torrent, including links to Subtitle, samples, screenshots, or any other relevant information. Watch josh wink-higher state of consciousness[voldemort5][h33t com] Full Movie Online Free, Like 123Movies, FMovies, Putlocker, Netflix or Direct Download Torrent josh wink-higher state of consciousness[voldemort5][h33t com] via Magnet Download Link.

Comments (0 Comments)




Please login or create a FREE account to post comments

People Searches